Skip to main content

Dawes Live at Marilyn's on 2009-06-30

Audio Preview

etree
Dawes Live at Marilyn's on 2009-06-30

by Dawes



01. If You Let Me Be Your Anchor
02. God Rest My Soul
03. Love is All I Am
04. When My Time Comes
05. My Way Back Home
06. Give Me Time
07. That Western Skyline
08. Peace In The Valley


Collection Dawes
Band/Artist Dawes
Venue Marilyn's
Location Sacramento, CA, USA

Source [SBD] + [AK40 (ORTF, ~7' high @ SBD) > LC3 > KM100 > Aerco MP-2] >> R-44 (Oade CM) >> WAV @ 24bit/44.1KHz
Lineage Adobe Audition 3.0 >> normalize >> AK40/SBD mix >> iZotope Ozone 4 VST >> multiband exciter >> loudness maximizer >> dither to 16 bit (MBIT+ algorithm)
Taped by Dmonkey
Transferred by Dmonkey

Notes

Deer Tick is now on the LMA!
https://archive.org/details/DeerTick2009-06-30


SHNTOOL:
length expanded size cdr WAVE problems fmt ratio filename
3:42.74 39334892 B --- -- ---xx dawes2009-06-30t01.flac
4:58.38 52656620 B --- -- ---xx dawes2009-06-30t02.flac
5:18.63 56243420 B --- -- ---xx dawes2009-06-30t03.flac
5:25.44 57433532 B --- -- ---xx dawes2009-06-30t04.flac
7:00.06 74102156 B --- -- ---xx dawes2009-06-30t05.flac
3:31.47 37330988 B --- -- ---xx dawes2009-06-30t06.flac
5:53.19 62313932 B --- -- ---xx dawes2009-06-30t07.flac
7:10.16 75888628 B -b- -- ---xx dawes2009-06-30t08.flac
43:01.07 455304168 B 0.5580 (8 files)

comment
Reviews

There are no reviews yet. Be the first one to write a review.
SIMILAR ITEMS (based on metadata)
Dawes
by Dawes
etree
eye 709
favorite 1
comment 0
Source: Mackie SBD > Sony PCM-M1 > DAT + Neumann KM140’s > MV100 > -11dB attenuator cable > H2 (mic pads set at -10dB) > WAV @24-bit/48kHz (ORTF on stand, rt of center, 9' high)
Dawes
by Dawes
etree
eye 590
favorite 1
comment 0
Source: Allen & Heath GL3300 SBD > Sony PCM-M1 > DAT + Neumann KM140’s > MV100 > -11dB attenuator cable > H2 (mic pads set at -10dB) > WAV @24-bit/48kHz (clamped on ctr post, ~8' high)
Dawes
etree
eye 1,296
favorite 1
comment 0
Source: Neumann KM140's (ORTF with windscreens on stand, right side, back of main floor) > Beyer MV100 > M-Audio Microtrack II > WAV @24-bit/48kHz + Soundcraft Spirit 8 SBD > Zoom H2 > WAV @24-bit/48kHz
Dawes
etree
eye 2,958
favorite 3
comment 1
favoritefavoritefavoritefavoritefavorite ( 1 reviews )
Source: Mackie SBD tape outs > Sony PCM-M1 > DAT @16/48 Neumann KM140's > Beyer MV100 > M-Audio Microtrack II > WAV @24/48
Dawes
etree
eye 391
favorite 1
comment 0
Source: Neumann KM140's (ORTF with windscreens on stand, right side, back of main floor) > Beyer MV100 > M-Audio Microtrack II > WAV @24-bit/48kHz + Soundcraft Spirit 8 SBD > Zoom H2 > WAV @24-bit/48kHz
Dawes
etree
eye 373
favorite 0
comment 0
Source: Mackie SBD tape outs > Sony PCM-M1 > DAT @16/48 Neumann KM140's > Beyer MV100 > M-Audio Microtrack II > WAV @24/48
Backyard Tire Fire
by Backyard Tire Fire
etree
eye 2,026
favorite 1
comment 0
Source: SBD + Audience post-matrix
Indecision
by Indecision
etree
eye 208
favorite 3
comment 0
Source: Matrix: B&K4022(ortf) > Sonosax[35%] + sbd[65%] > 744T
Cracker
by Cracker
etree
eye 366
favorite 1
comment 0
Source: SBD + Audience post-matrix
Cracker
by Cracker
etree
eye 381
favorite 1
comment 1
favoritefavoritefavoritefavoritefavorite ( 1 reviews )
Source: SBD + Audience 4-channel post-production matrix mix